The Summer Hits 2018 Mykonos Summer Hits 2018 Compilation Mix Nick Lamprakis....!

About 20 results out of 467 (0.23 seconds)
    

Channel Title : Vrecords

Views : 25991

Likes : 188

DisLikes : 11

Published Date : 2018-06-03T08:08:12.000Z

Mykonos Summer Hits 2018 ✪ Compilation & Mix by Nick Lamprakis The Summer Hits 2018 - Best Hits and Selection of Deep House Summer mix 2018 Tracklist: 00:01 Arash - Dooset Daram (feat. Helena) [Filatov & Karas Remix] 02:52 Fabrizio Parisi & MiYan (feat. Belonoga) - Sunbeams 05:55 Dj Vianu & Serena - Nentori (Arilena Ara Cover Remix) 09:58 Ed Sheeran - Perfect (Dj Dark & MD Dj Remix) 13:10 Rita Ora - Anywhere (DJ Mexx & DJ ModerNator Radio Remix) 15:45 Da Buzz - Wonder Where You Are (Anton Ishutin Remix) 22:09 Ennio Morricone - Chi Mai (A-Mase Remix) 25:49 DJ Sava feat. Irina Rimes - I Loved You (Denis First Remix) 29:03 Roger Sanchez ft. Lisa Pure - Lost (Artur Montecci Remix) 33:43 George Michael - Careless Whisper (Nikko Culture Remix) 39:08 V-Sag feat. Alexandra Mckay - Lonely [2018 Deep House Remix By Nick Lamprakis] 42:40 Modjo - Lady (AceBlack 2017 Edit) 47:59 Wham! - Where Did Your Heart Go (DiPap Edit) 53:23 Filatov & Karas - Tell It To My Heart (Extended Mix) Created at Vrecords studios Athens, Greece Compilation by Nick Lamprakis Video samples edit by Vince Ioannou ▬▬▬▬▬▬▬▬▬▬▬▬▬▬▬▬▬▬▬▬▬▬▬▬ ● Subscribe To our Channel: https://www.youtube.com/channel/UCp9c1VCfbMFKHzj6x8L-MWw/?sub_confirmation=1 ▬▬▬▬▬▬▬▬▬▬▬▬▬▬▬▬▬▬▬▬▬▬▬▬ ● Don't forget to LIKE & SHARE this video if you enjoy it! Audio samples belong to their respective owners. ● Listen 24/7 DeeperDance Radio http://deeperdance.myl2mr.com/ http://5.133.182.174/stream.mp3?ipport=5.133.182.174_16204
    

Channel Title : TOPDJsMIX

Views : 56264

Likes : 384

DisLikes : 38

Published Date : 2018-01-29T19:17:04.000Z

MYKONOS the best of Deep House Summer 2018 Babis jb PARTY LIVE MIX free download TRACKS LISTTIME PERFORMER "BABIS JB" TITLE "MYKONOS SUMMER 2018" FILE "TOP DJs remix 1.mp3" MP3 TRACK 01 AUDIO TITLE "Touch - YouTube" PERFORMER "01 Kenno" INDEX 01 00:00:00 TRACK 02 AUDIO TITLE "Smells Like Teen Spirit" PERFORMER "02 NekliFF Mary S.K." INDEX 01 04:16:00 TRACK 03 AUDIO TITLE "Eden's Garden" PERFORMER "03 Frezel" INDEX 01 08:42:00 TRACK 04 AUDIO TITLE "Anunnaki" PERFORMER "04 atteo Monero" INDEX 01 13:49:00 TRACK 05 AUDIO TITLE "Crazy - YouTube" PERFORMER "05 Herr Vogel feat. Daniel Mustard" INDEX 01 19:08:00 TRACK 06 AUDIO TITLE "Burning Sun DAVI Remix - YouTube" PERFORMER "06 Monolink" INDEX 01 24:21:00 TRACK 07 AUDIO TITLE "Duluth - YouTube" PERFORMER "07 Vedou" INDEX 01 29:28:00 TRACK 08 AUDIO TITLE "Cydonia" PERFORMER "08 Julian Nates" INDEX 01 36:12:00 TRACK 09 AUDIO TITLE "Face Me" PERFORMER "09 Ramus" INDEX 01 40:32:00 TRACK 10 AUDIO TITLE "House Will Survive - YouTube" PERFORMER "10 Roland Clark" INDEX 01 46:11:00 TRACK 11 AUDIO TITLE "The Sun - Drums Mix - YouTube" PERFORMER "11 Chus Ceballos, Dennis Cruz" INDEX 01 50:17:00 TRACK 12 AUDIO TITLE "Pass Me" PERFORMER "12 Audiophonik" INDEX 01 57:27:00 TRACK 13 AUDIO TITLE "Soul Survivor" PERFORMER "13 Infected Soul, Sinai" INDEX 01 63:16:00 TRACK 14 AUDIO TITLE "Why don't you dance" PERFORMER "14 TR159 Luca Debonaire Kaippa" INDEX 01 69:42:00 holidays in greece 2018 Visit Greece | & Greek islands Discover the Greek islands Beach Parties in GREECE Corfu, ios, Kefalonia, Kos, Milos, Rhodes, Santoriny, Sifnos, Spetses, Thassos, Tinos, Zakynthos, Mykonos, Athens, Chalkis, Halkidiki,CRETE, Katerini, Kavala, Peloponnese, Thessaloniki, Volos Pelio Deep House BABIS JB & BOB DEEP 2018 LIVE MIX MUSIC TO THE Best Greek islands
    

Channel Title : EL Dj - Universal Love

Views : 19951

Likes : 430

DisLikes : 21

Published Date : 2018-08-10T14:00:39.000Z

Mykonos Summer Mix 2018 Dj Anne Louise : Salvador, Bahia, Brazil https://www.facebook.com/djannelouise We do not own this material! For promotional purposes only. Non-profit, fair use. If you have any rights to the material and you want us to take it down, please message us and we'll be happy to remove it immediately. Please indicate the part you are the owner of the rights. Thank You!
    

Channel Title : Musik power

Views : 3356

Likes : 34

DisLikes : 5

Published Date : 2018-06-27T01:26:32.000Z

summer,hits,summer songs 2018,summer hits,summer hits 2018,little mix summer hits 2018,summer mix,little mix - only you (the summer hits tour 2018),summer hit songs 2018,summer tracks 2018,summer mix 2018,summer playlist 2018,best summer tracks for 2018,deep house 2018,top 50 summer anthems of 2018,songs of summer 2018,summer songs,kygo mix 2018,summer hits tour,deep house mix 2018
    

Channel Title : TOPDJsMIX

Views : 122529

Likes : 1241

DisLikes : 105

Published Date : 2018-05-24T19:21:54.000Z

Mykonos best of deep & progressive house summer 2018 pool party Babis jb live MIX holidays in Greece 2018 Visit Greece | & Greek islands Discover the Greek islands Beach Parties Around Greece Visit The Best Music Bars Beach Party no limits Top Summer hits Crazy Night Parties & Sexy Girls Corfu, ios, Kefalonia, Kos, Milos, Rhodes, Santoriny, Sifnos, Spetses, Thassos, Tinos, Zakynthos, Mykonos, Paros, Samos, Naxos,Athens, Chalkis, Halkidiki,CRETE, Katerini, Kavala, Peloponnese, Thessaloniki, Volos Pelio Let's dance, & fun,bet of, Deep House vibes, progressive,disco, Chill Out ,house music,mix Oriental, Arabic Deep House, Ethnic vibes Mix, Tropical House , Relaxing Summer Mix, Best of Popular , club music, new music, Special dance Deep House, Magic Club Sessions, deep house selestion ,BABIS JB, BOB DEEP, 2018, LIVE MIX, MUSIC, TO THE Best, Greek islands. For COPYRIGHT ISSUES, please email us and your song/picture will be removed immediately: djbabiscrete@gmail.com my appreciation to ARTISTs and LABELs, maybe I offer something with it. Thank you all so much and I wish you're always happy wherever you are top djs MIX TRACKS LIST free download PERFORMER "BABIS JB" TITLE "MYKONOS 2018 VOL2" FILE "TOP DJs remix 1.mp3" MP3 TRACK 01 AUDIO TITLE "Dreamfields" PERFORMER "01 Chris Ojeda" INDEX 01 00:00:00 TRACK 02 AUDIO TITLE "Istok (Original Mix)" PERFORMER "02 Tebra" INDEX 01 07:16:00 TRACK 03 AUDIO TITLE "Bajo El Cielo Azul" PERFORMER "03 Hraach" INDEX 01 12:42:00 TRACK 04 AUDIO TITLE "YouTube" PERFORMER "04 Hot TuneiK Presents OneTwo O'Girondo (Nicolas Rada Dub Mix)" INDEX 01 16:49:00 TRACK 05 AUDIO TITLE "Sunbeams (DJ Tarkan Remix)" PERFORMER "05 Fabrizio Parisi MiYan feat. Belonoga" INDEX 01 22:31:00 TRACK 06 AUDIO TITLE "In The Air Tonight" PERFORMER "06 Phil Collins" INDEX 01 26:32:00 TRACK 07 AUDIO TITLE "YouTube" PERFORMER "07 Zankee Gulati Lush (Original Mix)" INDEX 01 31:34:00 TRACK 08 AUDIO TITLE "Singularity" PERFORMER "08 Andrew Case" INDEX 01 36:55:00 TRACK 09 AUDIO TITLE "YouTube" PERFORMER "09 Berni Turletti Feel Together (Analog Jungs Remix)" INDEX 01 42:13:00 TRACK 10 AUDIO TITLE "Andalusia" PERFORMER "10 Nikko Sunset" INDEX 01 48:42:00 TRACK 11 AUDIO TITLE "High Water (Matter Remix)" PERFORMER "11 Andre Absolut" INDEX 01 52:28:00 TRACK 12 AUDIO TITLE "Matala Progressive 2018" PERFORMER "12 Babis jb" INDEX 01 58:28:00 TRACK 13 AUDIO TITLE "Just In Time - YouTube" PERFORMER "13 Dosem" INDEX 01 64:50:00 TRACK 14 AUDIO TITLE "GO babis jb edit"(Victor Ruiz Warehouse Mix ) PERFORMER "14 MOBY" INDEX 01 69:08:00
    

Channel Title : TOPDJsMIX

Views : 4325

Likes : 82

DisLikes : 3

Published Date : 2018-08-31T17:47:18.000Z

Mykonos best of Progressive Summer beach party 2018 Babis jb MIX tracklist free download PERFORMER "TOP DJs MIX" TITLE "Mykonos Summer 2018" FILE "remix BABIS JB.mp3" MP3 TRACK 01 AUDIO TITLE "Kataltoni (Zone+ Usif Remix)" PERFORMER "001 Premiere Laroz Camel Rider" INDEX 01 00:00:00 TRACK 02 AUDIO TITLE "Moonscape" PERFORMER "02 Weird Sounding Dude" INDEX 01 06:52:00 TRACK 03 AUDIO TITLE "Sweat" PERFORMER "03 House Of Sparta Feat. Natacia" INDEX 01 13:25:00 TRACK 04 AUDIO TITLE "YouTube" PERFORMER "04 EANP Like Sand In My Hands (Original Mix)" INDEX 01 19:15:00 TRACK 05 AUDIO TITLE "I'm Just a Shadow of Myself (Arno Dirisio Remix)" PERFORMER "05 Christopher Hermann" INDEX 01 24:11:00 TRACK 06 AUDIO TITLE "YouTube" PERFORMER "06 Nicolas Ruiz Vision (Paul Deep (AR) Remix)" INDEX 01 28:37:00 TRACK 07 AUDIO TITLE "Stephane K John Creamer Shazam" PERFORMER "07 Ah Whey (Nick Curly Remix)" INDEX 01 36:20:00 TRACK 08 AUDIO TITLE "Can't get enough" PERFORMER "08 Lissat Voltaxx vs Marc Fisher" INDEX 01 41:49:00 TRACK 09 AUDIO TITLE "Need to feel loved" PERFORMER "09 Dmitry Glushkov feat. Bibika" INDEX 01 46:29:00 TRACK 10 AUDIO TITLE " Free" PERFORMER "10 Ultra Natè" INDEX 01 50:49:00 TRACK 11 AUDIO TITLE "Don't You Want Me" PERFORMER "11 Felix " INDEX 01 56:10:00 TRACK 12 AUDIO TITLE "Let Me Escape (Original Mix)" PERFORMER "12 Tucci" INDEX 01 62:35:00 TRACK 13 AUDIO TITLE "Sedi Laaka" PERFORMER "13 Chrispin The Drummer Team Distant Han-C" INDEX 01 67:25:00 TRACK 14 AUDIO TITLE "Suga" PERFORMER "14 Technasia Green Velvet" INDEX 01 74:30:00 holidays in Greece, 2018, Visit Greece, & Greek islands, Discover the Greek islands, Beach Parties, Around Greece, Visit The Best Music Bars, Beach Party, no limits, Top Summer hits, Crazy Night Parties, & Sexy Girls, Corfu, ios, Kefalonia, Kos, Milos, Rhodes, Santoriny, Sifnos, Spetses, Thassos, Tinos, santorini, Zakynthos, Mykonos, Paros, Samos, Naxos,Athens, Chalkis, Halkidiki,CRETE, Katerini, Kavala, Peloponnese, Thessaloniki, Volos Pelio, Let's dance, & fun,bet of, Deep House vibes, progressive,disco, Chill Out ,house music,mix Oriental, Arabic Deep House, Ethnic vibes Mix, Tropical House , Relaxing Summer Mix, Best of Popular , club music, new music, Special dance Deep House, Magic Club Sessions, deep house selestion ,BABIS JB, BOB DEEP, 2018, LIVE MIX, MUSIC, TO THE Best, Greek beach bars ant cafe For COPYRIGHT ISSUES, please email us and your song/picture will be removed immediately: djbabiscrete@gmail.com my appreciation to ARTISTs and LABELs, maybe I offer something with it. Thank you all so much and I wish you're always happy wherever you are top djs mix holidays in Greece, 2018, Visit Greece, & Greek islands, Beach Parties, The Best Music Bars, Beach Party, no limits, Top Summer hits, Sexy Girls, Corfu, ios, Kefalonia, Kos, Milos, Rhodes,Sifnos, Spetses, Thassos, santorini, Zakynthos, Mykonos, Paros, Samos, Naxos,Athens, Chalkis, Halkidiki,CRETE, Katerini, Kavala, Thessaloniki, Volos Pelio, progressive,disco, Chill Out ,house music,mix, Ethnic, Tropical House,BABIS JB, BOB DEEP, 2018,
    

Channel Title : Vrecords

Views : 985

Likes : 12

DisLikes : 0

Published Date : 2018-07-03T02:50:29.000Z

SUMMER LOVE GREECE DEEP HOUSE - TAKE ME TO THE BEACH (Nick Lamprakis) Vrecords Studio
    

Channel Title : Vrecords

Views : 219

Likes : 7

DisLikes : 0

Published Date : 2018-07-29T11:37:18.000Z

Summer Mix 2018 | Best Of Tropical Deep House Sessions Music By Nick Lamprakis Created at Vrecords studios Athens, Greece Compilation by Nick Lamprakis Video samples edit by Vince Ioannou ▬▬▬▬▬▬▬▬▬▬▬▬▬▬▬▬▬▬▬▬▬▬▬▬ ● Subscribe To our Channel: https://www.youtube.com/channel/UCp9c... ▬▬▬▬▬▬▬▬▬▬▬▬▬▬▬▬▬▬▬▬▬▬▬▬ ● Don't forget to LIKE & SHARE this video if you enjoy it! Audio samples belong to their respective owners. ● Listen 24/7 DeeperDance Radio http://deeperdance.myl2mr.com/ http://5.133.182.174/stream.mp3?ippor...
    

Channel Title : Vrecords

Views : 7251

Likes : 80

DisLikes : 1

Published Date : 2018-03-23T14:56:59.000Z

BUDDHA BAR MIAMI MIX (Nick Lamprakis Mix 2018) Vrecords Studio ● Listen 24/7 DeeperDance Radio http://deeperdance.myl2mr.com/ http://5.133.182.174/stream.mp3?ipport=5.133.182.174_16204
    

Channel Title : YouTube Top Music

Views : 1468

Likes : 30

DisLikes : 6

Published Date : 2018-10-11T22:13:20.000Z

The Summer Hits 2019 🔥 Best Hits and Selection of Deep House 🔥 Summer mix 2019 by YouTube TOP Musi
    

Channel Title : TOPDJsMIX

Views : 4464

Likes : 80

DisLikes : 4

Published Date : 2018-05-07T10:56:27.000Z

Best of ORIENTALE 2018 to MYKONOS Café & Dance Bars BABIS JB live mix Progressive Sound Holidays in Greece free download Discover the Greek islands Beach Parties in GREECE Corfu, ios, Kefalonia, Kos, Milos, Rhodes, Santoriny, Sifnos, Spetses, Thassos, Tinos, Zakynthos, Mykonos, Athens, Chalkis, Halkidiki,CRETE, Katerini, Kavala, Peloponnese, Thessaloniki, Volos Pelio Deep House BABIS JB & BOB DEEP 2018 LIVE MIX MUSIC TO THE Best Greek BEACH BARS
    

Channel Title : Vrecords

Views : 3940

Likes : 47

DisLikes : 2

Published Date : 2018-02-20T16:09:15.000Z

Best Deep House Music Mix 2018 ✪ Best of Nick Lamprakis ✪ ● Listen to "Saturday Night in the Mix" with Nick Lamprakis every Saturday night @ ANDROMEDA NET RADIO Athens: http://www.andromedanet.com or https://tunein.com/radio/Andromeda-FM-875-s15789/ ● Listen 24/7 DeeperDance Radio http://deeperdance.myl2mr.com/ http://5.133.182.174/stream.mp3?ipport=5.133.182.174_16204
    

Channel Title : Dj Deepest

Views : 3700

Likes : 77

DisLikes : 10

Published Date : 2018-08-11T14:56:38.000Z

Dear SUBSCRIBERS you are listening to : The Summer Hits 2018 - Best Hits Selection of Summer Deep House 2018 by DJ Deepest & AMHouse Hope you like to enjoy it. Dont forget to SUBSCRIBE ✔. Follow DJ Deepest INSTAGRAM : https://www.instagram.com/dj_deepest/ FACEBOOK : https://web.facebook.com/djdeepest/ SoundCloud : https://soundcloud.com/dj-deepest FOLLOW AMHouse INSTAGRAM : https://www.instagram.com/deephouse.amh/ YOUTOUBE : https://www.youtube.com/channel/UCAf0RyLBQUsBQ0igzq5E0uA
    

Channel Title : Heavy G.

Views : 3974

Likes : 49

DisLikes : 2

Published Date : 2018-04-20T18:23:36.000Z

Queen Of Mykonos (Early Drinks) Vocal Deep House Mixed by Heavy G. Summer 2018 Track List: 1. Dolly Parton - Jolene (Todd Terje Remix 2.Semisonic - Secret Smile (Heavy G. Remix) 3.Charlie Puth - Attention (Heavy G. Remix) 4.Lucy Pearl - Dont mess with my man (Charles j Rework) 5.George Michael - Careless Whispers (Dj Pantelis Soulful Mix) 6,Camila Cabello - Havana (Asher Remix) 7.Matthew Koma - Kisses Back (Dj Dark & MD Dj Remix) 8.Manuel Riva feat alexandra stan - miami (Adrian Funk X Olix Remix) 9.Zayn - Dusk till dawn (Dj Dark & MD Dj Remix) 10.Dua Lipa - New Rules (Dj DARK & MD Dj Remix) 11.Ultra Nate - Free (Jet Boot Jack Remix) 12.Sonique - It Feels so Good (Mentol & MD Dj remix) 13.Disco Incorporated - Freedom (Good Vibes Mix) 14.Mousse T. - Horny (Scott Diaz Gospel Excursion) 15.Funkatron - Second Choise
    

Channel Title : Vrecords

Views : 349

Likes : 14

DisLikes : 0

Published Date : 2018-06-28T08:12:59.000Z

Aegina Deep House Vocal New Mix 2018 - Best Summer Mix By Nick Lamprakis Vrecords Studio Created at Vrecords studios Athens, Greece Compilation by Nick Lamprakis Video samples edit by Vince Ioannou ▬▬▬▬▬▬▬▬▬▬▬▬▬▬▬▬▬▬▬▬▬▬▬▬ ● Subscribe To our Channel: https://www.youtube.com/channel/UCp9c... ▬▬▬▬▬▬▬▬▬▬▬▬▬▬▬▬▬▬▬▬▬▬▬▬ ● Don't forget to LIKE & SHARE this video if you enjoy it! Audio samples belong to their respective owners. ● Listen 24/7 DeeperDance Radio http://deeperdance.myl2mr.com/ http://5.133.182.174/stream.mp3?ippor...
    

Channel Title : Vassili TsiliChristos

Views : 21297

Likes : 17

DisLikes : 2

Published Date : 2018-10-11T00:02:52.000Z

Made in Mykonos 2018 at Nammos Mykonos by Vassili Tsilichristos
    

Channel Title : Nonstop

Views : 118

Likes : 2

DisLikes : 0

Published Date : 2018-06-06T05:40:35.000Z

PLEASE SUBSCRIBE for new mixes. Dear SUBSCRIBERS you are listening to : Best selection deep house mix 2018 by DJ Deepest & AMHouse. Hope you like to enjoy it. Best selection of deep house mixes of this 4 months 2018. Dont forget to SUBSCRIBE ✔. Follow DJ Deepest INSTAGRAM : https://www.instagram.com/dj_deepest/ FACEBOOK : https://web.facebook.com/djdeepest/ FOLLOW AMHouse " INSTAGRAM : https://www.instagram.com/deephouse.amh/ YOUTOUBE : https://www.youtube.com/channel/UCAf0RyLBQUsBQ0igzq5E0uA Summer mix 2018 Summer Deep House Mix 2018 Summer Vocal deep Deep house summer 2018 kygo summer mix 2018 ahmet kilic mix 2018 ahmet kilic summer mix summer 2018 mix kygo ahmet kilic deep house deep mix mahmut orhan dj regard dj drop g dj jambo dj deepest viet melodic missdeepmix staysee best hits of deep house 2018
    

Channel Title : Dj Deepest

Views : 9217

Likes : 138

DisLikes : 7

Published Date : 2018-08-19T12:04:15.000Z

Dear Listeners you are listening to "Dance Hits - Summer Mix August 2018 - Hits and Selection Of Deep House 2018 by DJ Deepest & AMHouse" I hope you all like and enjoy it,please share with your friends. I wish you all the best . Follow DjDeepest Instagram : https://www.instagram.com/dj_deepest/ Facebook : https://web.facebook.com/djdeepest SoundCloud : https://soundcloud.com/dj-deepest FOLLOW AMHouse INSTAGRAM : https://www.instagram.com/deephouse.amh/ YOUTOUBE: https://www.youtube.com/channel/UCAf0RyLBQUsBQ0igzq5E0uA TRACKLIST : 1. Dj Vianu - Driving Me Craxy (Original Mix) 2.Max Oazi - What is Love (TI.M Remix) 3. Serge Legran - Colors ( Original Mix) 4 . Regard - You're Mine ( Zonatto Di Morias Remix) 5. Serge Legran - A Matter of Time (Extended Remix) 6. Costa Mee - I Need You (Vinylsurfer Remix) 7. GeoM - Somethings Missing ( Extended Mix) 8. DJ Marlon - I Need Your Love Tonight ( Pete Bellis & Tommy Remix) 9. Monoteq - Never Give Up (Original Mix) 10. NA No - Here I Am [Premiere] 11. Nesco & Robert Cristian - Hold Me ( Original Mix) 12. Igor Kalinin & Esoreni - Take My Heart This channel is created to promote and support new artists, (musicians/labels, composers, producers, photographers/filmmakers) who want to create a fan base. Send your song or video to DJ Deepest If any producer, label, artist or photographer has an issue with any of the music or video uploads please contact us and we will remove your work immediately. Thank you! 🔔 We strive to find the best and most enjoyable music for you guys! We hope to make your days more beautiful with the music we share ! Peace love and music. I'm also a music producer, I'm working on this project ! 🚫 If you have any problem with copyright issues, or question please do not report me, take your time to contact us via mail, and we will response within 48h - gegydeephouse@gmail.com Please share this video in social sites (Facebook, Google +, Twitter. Chillout Music Best Remixes of Popular Songs EDM Dance Music Tropical House Mix Tropical House house music mix Summer Music summer house music mix house music mix justin bieber selena gomez ellie goulding kygo mix kygo remix chill out music best of kygo popular songs music mix 2018 music 2018 2018 mix house mix Trap mix Electro mix David Guetta Afrojack Matoma Justin Bieber Martin Garrix Selena Gomez Ariana Grande Vevo Kygo Jonas Blue Cheat Codes Avicii Tiesto Alan Walker Martin Garrixkers Robin Schulz The Chainsmokers music mix 2018 new songs 2018 #DjDeepest #deephouse2018 #autumnmix #summermusic #summermusicmix #summermusic2018 #chillmusic #chill
    

Channel Title : TOPDJsMIX

Views : 17802

Likes : 248

DisLikes : 13

Published Date : 2018-06-14T11:55:05.000Z

best of Deep Sound Babis jb live mix PAROS BEACH BARS & Cafe SUMMER 2018 holidays in Greece, 2018, Visit Greece, & Greek islands, Discover the Greek islands, Beach Parties, Around Greece, Visit The Best Music Bars, Beach Party, no limits, Top Summer hits, Crazy Night Parties, & Sexy Girls, Corfu, ios, Kefalonia, Kos, Milos, Rhodes, Santoriny, Sifnos, Spetses, Thassos, Tinos, santorini, Zakynthos, Mykonos, Paros, Samos, Naxos,Athens, Chalkis, Halkidiki,CRETE, Katerini, Kavala, Peloponnese, Thessaloniki, Volos Pelio, Let's dance, & fun,bet of, Deep House vibes, progressive,disco, Chill Out ,house music,mix Oriental, Arabic Deep House, Ethnic vibes Mix, Tropical House , Relaxing Summer Mix, Best of Popular , club music, new music, Special dance Deep House, Magic Club Sessions, deep house selestion ,BABIS JB, BOB DEEP, 2018, LIVE MIX, MUSIC, TO THE Best, Greek beach bars ant cafe
    

Channel Title : Vrecords

Views : 1618

Likes : 21

DisLikes : 0

Published Date : 2017-11-09T16:39:26.000Z

IBIZA WINTER Deep House InThe Mix 2018 By Nick Lamprakis Vrecords Studio Andromeda Studio Athens
    

Channel Title : Дмитрий Горбунов

Views : 988

Likes : 16

DisLikes : 2

Published Date : 2018-06-26T17:13:00.000Z

    

Channel Title : Dj Ben Bakson

Views : 9161

Likes : 133

DisLikes : 7

Published Date : 2018-07-03T07:29:57.000Z

    

Channel Title : Vrecords

Views : 543

Likes : 16

DisLikes : 0

Published Date : 2018-06-11T17:49:05.000Z

GREATEST BUDDHA MUSIC -------------------------------------------------------- Buddhism Songs Nick Lamprakis Buddha Bar The Best of Buddha Bar Nick Lamprakis Vrecords Studio
    

Channel Title : Ar. lee

Views : 554

Likes : 9

DisLikes : 0

Published Date : 2018-09-16T17:02:43.000Z

Jackie O' Mykonos 2018 Follow me on social networks Facebook : invisiblelight Instagram : Invisiblelight_dxb Youtube : Invisiblelight
    

Channel Title : Ego Italy

Views : 5324

Likes : 146

DisLikes : 17

Published Date : 2018-07-17T07:00:02.000Z

EGO IN MYKONOS 2018 Selected by BEN DJ OUT ON 20th July 2018 EXCLUSIVELY on iTunes & Apple Music Add to your collection: https://itunes.apple.com/it/album/ego-in-mykonos-2018/1402538285 Follow Ego on Facebook: http://www.fb.com/EgoItaly Subscribe to EgoTV NOW: http://bit.ly/1hzlXkS Summer 2018! It’s time for our exclusive EGO IN MYKONOS compilation, this time selected by DJ & producer BEN DJ! Beach, waves, drinks, sun, sea and good music: these are the keywords for a summer full of fun and relax! The compilation includes exclusive international tracks such as "Drunk Groove" by Maruv & Boosin, "Sundogs" by Mambo Brothers, "At Night" by Shakedown remixed by Purple Disco Machine and new EGO releases like the second single of Shanguy titled "King Of The Jungle", "Down" produced by Moinè vs Spada, Hiisak's remix of "Somewhere Above The Clouds" by Djs From Mars and many more! 00:00 BEN DJ - Se Levanta (Extended Mix) 00:53 SHANGUY - King Of The Jungle 01:17 MANYUS & DARIO GUIDA - Life (Club Mix) 01:52 SIMIOLI & DEE FRANS - Got Me Singing 02:09 MICHAEL CALFAN - Got You 02:41 BTSOUND - Ice Cream (Ben Dj Remix) 03:14 SPADA - Rooftops 03:46 MOINÈ VS SPADA - Down (Extended Mix) 04:33 ANGELO FERRERI - Soul Scan 05:05 MAMBO BROTHERS - Sundogs (Original Mix) 05:36 FRANKY RIZARDO - Revoke 06:04 SHAKEDOWN - At Night (Purple Disco Machine Extended Remix) 06:36 MILANI X EMANUELE ANTIMI - Undersound (Juro Edit) (Extended Mix) 07:08 DJ LORA - Shine On Me (Original Mix) 07:41 DJ FRISCO & MARCOS PEÓN - Ain't That A Shame (Extended Mix) 08:19 DJS FROM MARS - Somewhere Above The Clouds (Hiisak Remix) 08:50 MICHAEL PRADO - Last Night A Dj Saved My Life (USAI Extended Mix) 09:26 KLINGANDE FEAT. KRISHANE - Rebel Yell (Djs From Mars Remix) 09:57 UPLINK FT. JEX - Love Me (Club Mix) 10:29 S.T:E.R - Paradise (Extended Mix) 11:00 MARUV & BOOSIN - Drunk Groove (Explicit) 11:35 DAVO - No More Tears 12:13 BOOSTEDKIDS FEAT. PETER FOREST - Slowdive
    

Channel Title : Blondeep Mix

Views : 59985

Likes :

DisLikes :

Published Date : 2018-03-07T09:33:19.000Z

Best Club TV!!! Watch The Best Nightclubs, Day Clubs & Beach Clubs Of All Over The World In Party Time Action!!! ...Enjoy!!! LIKE & SHARE ARE WELCOME!!!!!
    

Channel Title : TOPDJsMIX

Views : 90702

Likes : 541

DisLikes : 58

Published Date : 2018-02-20T07:07:00.000Z

BOB DEEP Live MIX best of deep house summer set 2018, photo nikole mejia.Holidays in Greece ant visit the beach bars TRACKS LIST free download PERFORMER "TOP DJs MIX" TITLE "DEEP HOUSE4/2018" FILE BOB DEEP mix 4.mp3" MP3 TRACK 01 AUDIO TITLE "Last" PERFORMER "01 Platon feat. Joolay" INDEX 01 00:00:00 TRACK 02 AUDIO TITLE "Give Me Your Love" PERFORMER "02 Andrey Kravtsov, Alexander Furdak" INDEX 01 05:46:00 TRACK 03 AUDIO TITLE "Frozen" PERFORMER "03 Madonna" INDEX 01 09:03:00 TRACK 04 AUDIO TITLE "Into The Blue" PERFORMER "04 Kailen" INDEX 01 15:03:00 TRACK 05 AUDIO TITLE "Making Love" PERFORMER "05 Melih Aydogan" INDEX 01 18:14:00 TRACK 06 AUDIO TITLE "I Can See It" PERFORMER "06 Lisa Shaw" INDEX 01 22:13:00 TRACK 07 AUDIO TITLE "Ameno" PERFORMER "07 Volkan Uca Feat. Ersin Ersavas Semih Celikel" INDEX 01 27:48:00 TRACK 08 AUDIO TITLE "Fall in Love" PERFORMER "08 VetLove, Mike Drozdov feat. Natune" INDEX 01 31:53:00 TRACK 09 AUDIO TITLE "You And I(Pete Bellis Tommy Remix)" PERFORMER "09 Medina" INDEX 01 37:19:00 TRACK 10 AUDIO TITLE "Sunlight" PERFORMER "10 Filatov Karas" INDEX 01 41:47:00 TRACK 11 AUDIO TITLE "Night By Night" PERFORMER "11 DJ Aristocrat Gosha" INDEX 01 46:01:00 TRACK 12 AUDIO TITLE "Go Away" PERFORMER "12 Maxim Andreev" INDEX 01 49:18:00 TRACK 13 AUDIO TITLE "The Sun" PERFORMER "13 Chus Ceballos, Dennis Cruz" INDEX 01 52:41:00 TRACK 14 AUDIO TITLE "Step by Step (Original Mix)" PERFORMER "14 Giuseppe Martini, Greck B holidays in greece 2018 Visit Greece | & Greek islands Discover the Greek islands Beach Parties in GREECE Corfu, ios, Kefalonia, Kos, Milos, Rhodes, Santoriny, Sifnos, Spetses, Thassos, Tinos, Zakynthos, Mykonos, Athens, Chalkis, Halkidiki,CRETE, Katerini, Kavala, Peloponnese, Thessaloniki, Volos Pelio Deep House BABIS JB & BOB DEEP 2018 LIVE MIX MUSIC TO THE Best Greek islands
    

Channel Title : Kræftens Bekæmpelse

Views : 1676

Likes : 26

DisLikes : 0

Published Date : 2018-06-18T20:15:25.000Z

It’s here! Help a Dane Summer Hits! Amazing hits from five fabulous artists – all ready to help the Danes avoid dangerous sunburns on their holidays. The Songs are being played across Greece, Thailand, France, Italy and Spain and more than 12.000 locals have signed up to help a Dane. Watch the five fantastic music videos at https://www.helpadane.com/
    

Channel Title : masterpaolo06

Views : 28

Likes : 1

DisLikes : 0

Published Date : 2018-10-30T20:04:09.000Z

    

Channel Title : GO-POP

Views : 89

Likes :

DisLikes :

Published Date : 2018-06-05T23:56:08.000Z

    

Channel Title : MonsterRemix

Views : 3639

Likes : 14

DisLikes : 0

Published Date : 2018-08-07T07:07:11.000Z

    

Channel Title : TOPDJsMIX

Views : 5945

Likes : 89

DisLikes : 9

Published Date : 2018-08-03T15:34:18.000Z

best of Oriental afro progressive trans house Summer Sessions babis jb MIX Tel Aviv party 2018 Israel PERFORMER "top djs mix" TITLE " Tel Aviv party 2018 " FILE "babis jb remix & mix" WAVE TRACK 01 AUDIO TITLE "Miami Rice" PERFORMER "01 Gab Rhome" INDEX 01 00:00:00 TRACK 02 AUDIO TITLE "Oneiro - YouTube" PERFORMER "02 Kosmas Dio S" INDEX 01 06:15:00 TRACK 03 AUDIO TITLE "Magharibi" PERFORMER "03 Sahale" INDEX 01 09:41:00 TRACK 04 AUDIO TITLE "Habibi Ala El Donia" PERFORMER "04 Dizharmonia,Hot Oasis" INDEX 01 16:14:00 TRACK 05 AUDIO TITLE "K Bug" PERFORMER "05 Lee Burridge Lost Desert" INDEX 01 21:19:00 TRACK 06 AUDIO TITLE "Digital Heart - YouTube" PERFORMER "06 Adisyn" INDEX 01 26:01:00 TRACK 07 AUDIO TITLE "- Seize The Force (Arnas D Remix) [Clinique Recordings] - YouTube" PERFORMER "07 Monojoke " INDEX 01 30:54:00 TRACK 08 AUDIO TITLE "Get Out Of My Way" PERFORMER "08 Anturage, Stereoteric, JazzyFunk" INDEX 01 36:52:00 TRACK 09 AUDIO TITLE "Love On My Mind" PERFORMER "09 Mar G Rock Di Fiori" INDEX 01 41:39:00 TRACK 10 AUDIO TITLE "- Into The Blue (Tosel & Hale Remix) - YouTube" PERFORMER "10 Marc O'Tool " INDEX 01 45:38:00 TRACK 11 AUDIO TITLE " Justine Berg - Beautiful Love (4U Remix) - YouTube" PERFORMER "11 Sean Norvis & Seepryan Feat." INDEX 01 51:06:00 TRACK 12 AUDIO TITLE "Stretch Your Eyes" PERFORMER "12 Agnes Obel" INDEX 01 56:37:00 TRACK 13 AUDIO TITLE "YouTube" PERFORMER "13 Masedonico The Director Of My Life (Difstate Remix)" INDEX 01 59:15:00 TRACK 14 AUDIO TITLE "From Jamaica to Brasil - YouTube" PERFORMER "14 Silvano Del Gado" INDEX 01 64:05:00 TRACK 15 AUDIO TITLE "Filtered African Blues" PERFORMER "15 Oscar P, FNX" INDEX 01 68:54:00 TRACK 16 AUDIO TITLE "Sedi Laaka" PERFORMER "16 Chrispin The Drummer Team Distant Han-C" INDEX 01 76:16:00 TRACK 17 AUDIO TITLE "Is This Love" PERFORMER "17 Bob Marley" INDEX 01 80:14:00 TRACK 18 AUDIO TITLE "Rapture" PERFORMER "18 Andrey Exx, Elis M. Feeling ft Mary Irene" INDEX 01 85:31:00 TRACK 19 AUDIO TITLE " + Yas Cepeda + Jerome Robins *** With Or Without You - YouTube" PERFORMER "19 Vlada Asanin" INDEX 01 89:41:00 TRACK 20 AUDIO TITLE "YouTube" PERFORMER "20 Camelphat Elderbrook ‘Cola’" INDEX 01 94:57:00 TRACK 21 AUDIO TITLE "La Mañana" PERFORMER "21 DJ Fronter" INDEX 01 100:19:00 TRACK 22 AUDIO TITLE "6AM" PERFORMER "22 Juliet Fox" INDEX 01 104:53:00 TRACK 23 AUDIO TITLE "Just In Time - YouTube" PERFORMER "23 Dosem" INDEX 01 107:55:00 TRACK 24 AUDIO TITLE "Matala Progressive 2018" PERFORMER "24 Babis jb" INDEX 01 112:13:00 TRACK 25 AUDIO TITLE "GO babis jb edit" PERFORMER "25 MOBY" INDEX 01 116:50:00 TRACK 26 AUDIO TITLE "Primewire" PERFORMER "26 Oscar L" INDEX 01 121:44:00 TRACK 27 AUDIO TITLE "Insomnia" PERFORMER "27 Andrew Meller" INDEX 01 125:58:00 holidays in Greece, 2018, Visit Greece, & Greek islands, Discover the Greek islands, Beach Parties, Around Greece, Visit The Best Music Bars, Beach Party, no limits, Top Summer hits, Crazy Night Parties, & Sexy Girls, Corfu, ios, Kefalonia, Kos, Milos, Rhodes, Santoriny, Sifnos, Spetses, Thassos, Tinos, santorini, Zakynthos, Mykonos, Paros, Samos, Naxos,Athens, Chalkis, Halkidiki,CRETE, Katerini, Kavala, Peloponnese, Thessaloniki, Volos Pelio, Let's dance, & fun,bet of, Deep House vibes, progressive,disco, Chill Out ,house music,mix Oriental, Arabic Deep House, Ethnic vibes Mix, Tropical House , Relaxing Summer Mix, Best of Popular , club music, new music, Special dance Deep House, Magic Club Sessions, deep house selestion ,BABIS JB, BOB DEEP, 2018, LIVE MIX, MUSIC, TO THE Best, Greek beach bars ant cafe For COPYRIGHT ISSUES, please email us and your song/picture will be removed immediately: djbabiscrete@gmail.com my appreciation to ARTISTs and LABELs, maybe I offer something with it. Thank you all so much and I wish you're always happy wherever you are top djs mix
    

Channel Title : Thanos Fotakopoulos

Views : 452

Likes : 17

DisLikes : 0

Published Date : 2018-06-08T13:52:15.000Z

Captured on Iphone X Filmmaker: https://www.facebook.com/fotakopoulos https://www.instagram.com/fotakopoulos
    

Channel Title : House Me Up

Views : 634

Likes : 15

DisLikes : 0

Published Date : 2018-09-14T08:45:26.000Z

https://soundcloud.com/miloh-fliger https://soundcloud.com/scorpiosmykonos Scorpios curates a program of collective rituals meant to raise awareness, connect likeminded people, inspire change, and promote mindfulness.Our daily sunset rituals are sonic journeys that nourish and celebrate diverse strands of the avant-garde, with each day of the week tuned to a unique rhythm. @miloh-fliger From the very first instant of each of his sets, Milo prepares us for an astonishing journey and invites us to reconnect with our true selves to probe deep inside our being for buried or sometimes forgotten feelings. This is how a beautiful story begins in the heart of our unconsciousness, underlined by refined ethnic sounds and highly emotional melodies. We get by and by seized in a world of sweetness with melancholic accents and our ears discover an enchanting poem that needs no words. Music selected by Milo raises stunning emotions and brings about strong messages ; it makes us question the world which surrounds us. It brings us together, opens our minds and leads us to sometimes forgotten essential values such as sharing, meeting, discovering. Finally, we can say that Milo belongs to those artists who subtly offer us a new look on our world like a little note of hope in the hubbub of the world around us. Photo by : Dimitrios Pantazis For Promotional Purpose ''ONLY'' No Copyright Infringement Intended Respect The Artist By Purchasing Your Own Copy Contact House Me Up official page : https://www.facebook.com/housemeup Follow on Soundcloud : https://soundcloud.com/housemeup Follow on Instagram : https://instagram.com/housemeup Follow on Twitter : https://twitter.com/hmu_new Thanks for your donations! : https://goo.gl/mPP56L Subscribe for daily fresh music! Dear Copyright holders, this channel is made only for promoting music to its fans and it does not intend to make any profit. If you are unhappy with any of the uploads please contact, before reporting the video, and it will be deleted immediately! Thanks in advance!
    

Channel Title : TOPDJsMIX

Views : 72046

Likes : 522

DisLikes : 36

Published Date : 2017-12-07T23:17:29.000Z

TRACK 01 AUDIO TITLE "YouTube" PERFORMER "01 Masedonico The Director Of My Life (Difstate Remix)" INDEX 01 00:00:00 TRACK 02 AUDIO TITLE "Back in Shape" PERFORMER "02 Gebreski" INDEX 01 06:56:00 TRACK 03 AUDIO TITLE "Daylight" PERFORMER "03 RUFUS" INDEX 01 13:08:00 TRACK 04 AUDIO TITLE "Labyrinth (Artfaq 'Never Too Late' Mix)" PERFORMER "04 Cream" INDEX 01 16:41:00 TRACK 05 AUDIO TITLE "Nani Ja" PERFORMER "05 Armen Miran" INDEX 01 23:02:00 TRACK 06 AUDIO TITLE "Cover Me (Dixon Remix)" PERFORMER "06 Depeche Mode" INDEX 01 27:51:00 TRACK 07 AUDIO TITLE "Fool" PERFORMER "07 Nu feat. Jo Ke" INDEX 01 32:19:00 TRACK 08 AUDIO TITLE "Paramour" PERFORMER "08 Soul Button" INDEX 01 36:12:00 TRACK 09 AUDIO TITLE "Pachamama - YouTube" PERFORMER "09 YokoO Retza" INDEX 01 40:49:00 TRACK 10 AUDIO TITLE "Infinite Reflections" PERFORMER "10 Fynn" INDEX 01 45:05:00 TRACK 11 AUDIO TITLE "YouTube" PERFORMER "11 Nick Koplan Rapossa Elysium (Nicolas Rada Remix)" INDEX 01 50:30:00 TRACK 12 AUDIO TITLE "Sinnerman" PERFORMER "12 Nina Simone" INDEX 01 56:37:00 TRACK 13 AUDIO TITLE "It Feels So Good" PERFORMER "13 Sonique" INDEX 01 61:35:00 holidays in greece 2018 Visit Greece | & Greek islands Discover the Greek islands Beach Parties in GREECE Corfu, ios, Kefalonia, Kos, Milos, Rhodes, Santoriny, Sifnos, Spetses, Thassos, Tinos, Zakynthos, Mykonos, Athens, Chalkis, Halkidiki,CRETE, Katerini, Kavala, Peloponnese, Thessaloniki, Volos Pelio Deep House BABIS JB & BOB DEEP 2018 LIVE MIX MUSIC TO THE Best Greek islands
    

Channel Title : Vassili TsiliChristos

Views : 3780

Likes : 21

DisLikes : 1

Published Date : 2018-07-11T12:49:05.000Z

★ Made In Mykonos at Nammos | Saturday 28 July 2018 ★ Event: https://www.facebook.com/events/256261044947217/ Follow Vassili TsiliChristos Facebook: https://www.facebook.com/vassilitsilichristos/ Instagram: https://www.instagram.com/vassilitsilichristos/ Follow Made in Mykonos Facebook: https://www.facebook.com/madeinmykonos/ Instagram: https://www.instagram.com/madeinmykonos/
    

Channel Title : Fazlddin Botirov

Views : 2

Likes : 1

DisLikes : 0

Published Date : 2018-10-04T20:21:52.000Z

    

Channel Title : 1DoBrasil - Músicas Eletrônicas

Views : 95085

Likes : 407

DisLikes : 37

Published Date : 2017-11-05T20:11:47.000Z

SUMMER HITS 2018 | Mashup 22 Songs ♫ Support 1DoBrasil ♫ YouTube: https://www.youtube.com/user/primeirodobrasil Facebook: https://www.facebook.com/OneDoBrasil Website: http://goo.gl/rqazU8 ♫ Support Dj Pyromania ♫ YouTube: https://www.youtube.com/channel/UCzidYiSzphWZEF3l5hMxKvg SoundCloud: https://soundcloud.com/djpyromania-2 Instagram: https://www.instagram.com/djpyromaniawilliamkwangtas9917/ Twitter: https://twitter.com/WilliamKevWang1 house mashup mix summer hits 2018 mashup 2018
    

Channel Title : DJ Dennis Sigalos

Views : 1924

Likes : 18

DisLikes : 3

Published Date : 2018-05-31T12:57:47.000Z

    

Channel Title : Alba Nell'O

Views : 525

Likes : 8

DisLikes : 0

Published Date : 2018-07-29T14:19:46.000Z

    

Channel Title : Best Documentary

Views : 7078

Likes : 39

DisLikes : 10

Published Date : 2018-05-23T21:30:00.000Z

Documentaire de Pierre Brouwers Production Media 9
    

Channel Title : Vrecords

Views : 16071

Likes : 141

DisLikes : 16

Published Date : 2017-05-22T20:28:50.000Z

BUDDHA BAR MIAMI MIX (Nick Lamprakis Mix 2017) Vrecords 2017
    

Channel Title : Vasilis Sperantzas

Views : 194

Likes : 2

DisLikes : 0

Published Date : 2018-04-22T19:54:46.000Z

The Best Of Vocal Deep House Music Chill Out a night @ the bar Mykonos DEEP HOUSE MIX
    

Channel Title : Larry Deejay

Views : 28

Likes : 0

DisLikes : 0

Published Date : 2018-07-18T13:41:46.000Z

Descarga gratuita // Free Download : https://hearthis.at/larrydeejay/i-love-mykonos-summer-2018-compiled-mixed-by-larry-dj/ ---------------------------------------------------------------- http://www.larrydj.es/ https://hearthis.at/larrydeejay/ https://www.facebook.com/larrydj.es/ https://twitter.com/LarryDeejay https://instagram.com/larrydeejay/
    

Channel Title : SOUNDSCAPE

Views : 380

Likes : 4

DisLikes : 0

Published Date : 2018-01-25T08:30:43.000Z

YouAPI-1


Facebook Page Like Box ::